当前位置:网站首页 > 更多 > 记录 > 正文

[纪录片] 味道中原[全40集][国语配音/中文字幕].Wei.Dao.Zhong.Yuan.S01.2017.1080p.WEB-DL.H264.AAC-ZeroTV 14.41GB

作者:精品资源网 日期:2024-06-17 13:44:16 浏览:77 分类:记录



[纪录片] 味道中原[全40集][国语配音/中文字幕].Wei.Dao.Zhong.Yuan.S01.2017.1080p.WEB-DL.H264.AAC-ZeroTV 14.41GB


◎标  题 味道中原
◎年  代 2017
◎产  地 中国大陆
◎类  别 纪录片
◎语  言 汉语普通话
◎IMDb链接 https://www.imdb.com/title//
◎豆瓣评分 6.9/10 (663人评价)
◎豆瓣链接 https://movie.douban.com/subject/30329914/
◎导  演 王崇茂 Chongmao Wang
       海金星 Jinxing Hai
       张玉 Yu Zhang
       布衣
       张治军 Zhijun Zhang
       叶静 Jing Ye
       赵燕 Yan Zhao
       司方方 Fangfang Si
       宗文静 Wenjing Zong
       王东辉 Donghui Wang

◎简  介
    河南地方美食纪录片,共40集。介绍了:茶油,柿子醋,米醋,贡面,大刀面,饸络面,板栗,茖葱,金蝉,八碗八,八大件,炒鸡茸,笨鸡蛋,缠丝鸭蛋,淮山羊,诸数花,咸鸭蛋,知了,粉皮,粉条,皮渣,杠子馍,水激馍,顾家馍,葛根肉粉,闷罐肉,毛豆腐,瓜豆酱,酱焖鸡,香菇酱,光头面,意大利面,自酿啤酒,胡辣汤,牛肉汤,大肠汤,花生糕,四味菜,杏仁茶,黄米粽,糯米饭,豌豆馅,烩面,新野板面,浆面条,鸡蛋不翻,陶罐豆芽,凉皮,韭花,蕨菜,竹笋,茶叶炒鸡蛋等众多中原美食。

[纪录片] 味道中原[全40集][国语配音/中文字幕].Wei.Dao.Zhong.Yuan.S01.2017.1080p.WEB-DL.H264.AAC-ZeroTV 14.41GB

##### MediaInfo ######
General
Complete name                            : 味道中原.Wei.Dao.Zhong.YuanS01E01.2017.1080p.WEB-DL.H264.AAC-ZeroTV.mp4
Duration                                 : 25 min 0 s
Overall bit rate mode                    : Variable
Overall bit rate                         : 1 514 kb/s

Video
ID                                       : 1
Format                                   : AVC
Format/Info                              : Advanced Video Codec
Format profile                           : High@L5
Format settings                          : CABAC / 5 Ref Frames
Format settings, CABAC                   : Yes
Format settings, Reference frames        : 5 frames
Codec ID                                 : avc1
Codec ID/Info                            : Advanced Video Coding
Duration                                 : 25 min 0 s
Bit rate                                 : 1 382 kb/s
Width                                    : 1 920 pixels
Height                                   : 1 080 pixels
Display aspect ratio                     : 16:9
Frame rate mode                          : Constant
Frame rate                               : 25.000 FPS
Color space                              : YUV
Chroma subsampling                       : 4:2:0
Bit depth                                : 8 bits
Scan type                                : Progressive
Bits/(Pixel*Frame)                       : 0.027
Stream size                              : 247 MiB (91%)
Color range                              : Limited
Color primaries                          : BT.709
Transfer characteristics                 : BT.709
Matrix coefficients                      : BT.709
Codec configuration box                  : avcC

Audio
ID                                       : 2
Format                                   : AAC LC
Format/Info                              : Advanced Audio Codec Low Complexity
Codec ID                                 : mp4a-40-2
Duration                                 : 25 min 0 s
Bit rate mode                            : Variable
Bit rate                                 : 126 kb/s
Maximum bit rate                         : 132 kb/s
Channel(s)                               : 2 channels
Channel layout                           : L R
Sampling rate                            : 44.1 kHz
Frame rate                               : 43.066 FPS (1024 SPF)
Compression mode                         : Lossy
Stream size                              : 22.5 MiB (8%)
Default                                  : Yes
Alternate group                          : 1


点击图片可查看大图

软字幕无法在截图上展现,HDR版本/杜比视界版本截图会出现颜色异常,请使用支持的设备播放!

[纪录片] 味道中原[全40集][国语配音/中文字幕].Wei.Dao.Zhong.Yuan.S01.2017.1080p.WEB-DL.H264.AAC-ZeroTV 14.41GB

[纪录片] 味道中原[全40集][国语配音/中文字幕].Wei.Dao.Zhong.Yuan.S01.2017.1080p.WEB-DL.H264.AAC-ZeroTV 14.41GB

[纪录片] 味道中原[全40集][国语配音/中文字幕].Wei.Dao.Zhong.Yuan.S01.2017.1080p.WEB-DL.H264.AAC-ZeroTV 14.41GB

[纪录片] 味道中原[全40集][国语配音/中文字幕].Wei.Dao.Zhong.Yuan.S01.2017.1080p.WEB-DL.H264.AAC-ZeroTV 14.41GB

[纪录片] 味道中原[全40集][国语配音/中文字幕].Wei.Dao.Zhong.Yuan.S01.2017.1080p.WEB-DL.H264.AAC-ZeroTV 14.41GB

[纪录片] 味道中原[全40集][国语配音/中文字幕].Wei.Dao.Zhong.Yuan.S01.2017.1080p.WEB-DL.H264.AAC-ZeroTV 14.41GB

部分资源为软字幕,移动端推荐播放器:MxPlayer,nPlayer,infuse ,其他播放器请自行尝试。

部分资源为软字幕,电脑端推荐播放器:PotPlayer,完美解码,KMPLAYER,其他播放器请自行尝试。

下载端推荐纯BT下载软件:qBittorrent,Bitcomet,uTorrent ,其他下载软件请自行尝试。不支持吸血迅雷。

附件:


您需要 登录账户 后才能发表评论

取消回复欢迎 发表评论:

请填写验证码