当前位置:网站首页 > 更多 > 动画 > 正文

[高清剧集] 偶像大师 闪耀色彩[全12集][中文字幕].The.iDOLM.STER.Shiny.Colors.S01.2024.1080p.WEB-DL.H264.AAC-ZeroTV 15.28GB

作者:精品资源网 日期:2024-06-23 05:08:40 浏览:73 分类:动画



[高清剧集] 偶像大师 闪耀色彩[全12集][中文字幕].The.iDOLM.STER.Shiny.Colors.S01.2024.1080p.WEB-DL.H264.AAC-ZeroTV 15.28GB


◎标  题 偶像大师 闪耀色彩
◎译  名 THE IDOLM@STER SHINY COLORS
◎片  名 アイドルマスター シャイニーカラーズ
◎年  代 2024
◎产  地 日本
◎类  别 动画 / 音乐
◎语  言 日语
◎IMDb评分 6.3/10 (11人评价)
◎IMDb链接 https://www.imdb.com/title/tt31543920/
◎豆瓣链接 https://movie.douban.com/subject/36320035/
◎导  演 万球 Mankyu
◎编  剧 加藤阳一 Yôichi Katô
◎演  员 关根瞳 Sekine Hitomi
       近藤玲奈 Reina Kondou
       峰田茉优 Mayu Mineda
       礒部花凜 Karin Isobe
       菅沼千纱 Suganuma Chisa
       八卷安奈 Anna Yamaki
       希水汐 Kisui Shio
       结名美月 Yuina Mizuki
       河野日和 Hiyori Kono
       白石晴香 Shiraishi Haruka
       永井真里子 Nagai Mariko
       丸冈和佳奈 Maruoka Wakana
       凉本秋穗 Suzumoto Akiho
       芝崎典子 Shibasaki Noriko
       前川凉子 Ryouko Maekawa
       山村响 Hibiku Yamamura
       津田健次郎 Kenjirô Tsuda

◎简  介
    手游《偶像大师 闪耀色彩》宣布电视动画化,并公开先导 PV 、第一弹主视觉图。主要制作人员、主演声优,该作由 Polygon Pictures 负责制作(代表作:《大雪海的卡纳》《Estab Life Great Escape》),万球担任导演(代表作:《偶像大师 灰姑娘女孩剧场》系列、《偶像大师 SideM 事出有因Mini!》),加藤阳一担任系列构成(代表作:《梦之祭》《偶像活动》),将在 2024 年春季开播,并于 10 月 27 日起进行影院先行上映!

[高清剧集] 偶像大师 闪耀色彩[全12集][中文字幕].The.iDOLM.STER.Shiny.Colors.S01.2024.1080p.WEB-DL.H264.AAC-ZeroTV 15.28GB

##### MediaInfo ######
General
Unique ID                                : 93210636154035454768564265007705524654 (0x461FB72D00D06F64B9EAA6037E3889AE)
Complete name                            : The.iDOLM.STER.Shiny.Colors.S01E01.2024.1080p.WEB-DL.H264.AAC-ZeroTV.mkv
Duration                                 : 24 min 5 s
Overall bit rate                         : 7 574 kb/s

Video
ID                                       : 1
Format                                   : AVC
Format/Info                              : Advanced Video Codec
Format profile                           : [email protected]
Format settings                          : CABAC / 1 Ref Frames
Format settings, CABAC                   : Yes
Format settings, Reference frames        : 1 frame
Format settings, GOP                     : M=1, N=60
Codec ID                                 : V_MPEG4/ISO/AVC
Duration                                 : 24 min 3 s
Bit rate mode                            : Constant
Bit rate                                 : 7 452 kb/s
Nominal bit rate                         : 8 000 kb/s
Width                                    : 1 920 pixels
Height                                   : 1 080 pixels
Display aspect ratio                     : 16:9
Frame rate mode                          : Constant
Frame rate                               : 29.970 (30000/1001) FPS
Color space                              : YUV
Chroma subsampling                       : 4:2:0
Bit depth                                : 8 bits
Scan type                                : Progressive
Bits/(Pixel*Frame)                       : 0.120
Stream size                              : 1.25 GiB (98%)
Language                                 : English
Default                                  : Yes
Forced                                   : No

Audio
ID                                       : 2
Format                                   : AAC LC
Format/Info                              : Advanced Audio Codec Low Complexity
Codec ID                                 : A_AAC-2
Duration                                 : 24 min 3 s
Bit rate                                 : 125 kb/s
Channel(s)                               : 2 channels
Channel layout                           : L R
Sampling rate                            : 48.0 kHz
Frame rate                               : 46.875 FPS (1024 SPF)
Compression mode                         : Lossy
Stream size                              : 21.6 MiB (2%)
Title                                    : 日语
Language                                 : Japanese
Default                                  : Yes
Forced                                   : No

Text #1
ID                                       : 3
Format                                   : UTF-8
Codec ID                                 : S_TEXT/UTF8
Codec ID/Info                            : UTF-8 Plain Text
Duration                                 : 24 min 0 s
Bit rate                                 : 30 b/s
Frame rate                               : 0.163 FPS
Count of elements                        : 235
Stream size                              : 5.31 KiB (0%)
Title                                    : 简体中文
Language                                 : Chinese
Default                                  : No
Forced                                   : No

Text #2
ID                                       : 4
Format                                   : UTF-8
Codec ID                                 : S_TEXT/UTF8
Codec ID/Info                            : UTF-8 Plain Text
Duration                                 : 24 min 0 s
Bit rate                                 : 30 b/s
Frame rate                               : 0.163 FPS
Count of elements                        : 235
Stream size                              : 5.31 KiB (0%)
Title                                    : 繁体中文
Language                                 : Chinese
Default                                  : No
Forced                                   : No



附件:


猜你还喜欢

您需要 登录账户 后才能发表评论

取消回复欢迎 发表评论:

请填写验证码