当前位置:网站首页 > 更多 > 剧集 > 正文

[动画剧集] THE NEW GATE[第10集][中文字幕].The.New.Gate.S01.2024.1080p.WEB-DL.AAC.H264-ParkTV 0.53GB

作者:精品资源网 日期:2024-06-17 03:07:35 浏览:97 分类:剧集



[动画剧集] THE NEW GATE[第10集][中文字幕].The.New.Gate.S01.2024.1080p.WEB-DL.AAC.H264-ParkTV 0.53GB


◎标  题 THE NEW GATE
◎译  名 新世界大门 / 新世界之门
◎年  代 2024
◎产  地 日本
◎类  别 动画 / 奇幻 / 冒险
◎语  言 日语
◎IMDb评分 6.2/10 (176人评价)
◎IMDb链接 https://www.imdb.com/title/tt31146105/
◎豆瓣评分 5.2/10 (157人评价)
◎豆瓣链接 https://movie.douban.com/subject/36613339/
◎导  演 中津环 Nakatsu Tamaki
◎编  剧 内田裕基 Hiroki Uchida
◎演  员 小野贤章 Kensho Ono
       濑户麻沙美 Asami Seto
       本渡枫 Kaede Hondo
       冈咲美保 Miho Okasaki
       比留间俊哉 Hiruma Shunya
       凉本秋穗 Suzumoto Akiho
       石原夏织 Kaori Ishihara
       Lynn Lynn
       星祐树 Hoshi Yuuki
       三上哲 Satoshi Mikami
       铃木达央 Tatsuhisa Suzuki
       花泽香菜 Kana Hanazawa

◎简  介
    The New Gate是一部大型多人线上游戏,而玩家被迫困在这个游戏里进行死亡游戏,若是不打赢最终BOSS的守护者,便无法登出游戏。男主角进是The New Gate的老手集最强玩家之一,在打赢守护者后,系统传来了游戏破关,能够执行登出的时候,本来打算确认完全部玩家登出后再登出时,身后却出现一道未曾看过的大门,伴随著强光而打开的大门,进醒来后却发现自己身处于与游戏相同的世界,并辗转得知自己穿越到游戏破关500年后的世界……

[动画剧集] THE NEW GATE[第10集][中文字幕].The.New.Gate.S01.2024.1080p.WEB-DL.AAC.H264-ParkTV 0.53GB

##### MediaInfo ######
General
Unique ID                                : 74217646494775304938314140980340728550 (0x37D5CC7CC1804DD40B7032EBF00222E6)
Complete name                            : 新世界之门.The.New.Gate.S01E10.2024.1080p.WEB-DL.AAC.H264-ParkTV.mkv
Duration                                 : 23 min 40 s
Overall bit rate                         : 3 201 kb/s

Video
ID                                       : 1
Format                                   : AVC
Format/Info                              : Advanced Video Codec
Format profile                           : [email protected]
Format settings                          : CABAC / 5 Ref Frames
Format settings, CABAC                   : Yes
Format settings, Reference frames        : 5 frames
Codec ID                                 : V_MPEG4/ISO/AVC
Duration                                 : 23 min 40 s
Bit rate                                 : 3 000 kb/s
Width                                    : 1 920 pixels
Height                                   : 1 080 pixels
Display aspect ratio                     : 16:9
Frame rate mode                          : Constant
Frame rate                               : 23.976 (24000/1001) FPS
Color space                              : YUV
Chroma subsampling                       : 4:2:0
Bit depth                                : 8 bits
Scan type                                : Progressive
Bits/(Pixel*Frame)                       : 0.060
Stream size                              : 509 MiB (94%)
Writing library                          : x264 core 142
Encoding settings                        : cabac=1 / ref=5 / deblock=1:0:0 / analyse=0x3:0x113 / me=umh / subme=9 / psy=1 / psy_rd=1.00:0.00 / mixed_ref=1 / me_range=32 / chroma_me=1 / trellis=1 / 8x8dct=1 / cqm=0 / deadzone=21,11 / fast_pskip=1 / chroma_qp_offset=-2 / threads=12 / lookahead_threads=1 / sliced_threads=0 / nr=0 / decimate=1 / interlaced=0 / bluray_compat=0 / stitchable=1 / constrained_intra=0 / bframes=3 / b_pyramid=2 / b_adapt=1 / b_bias=0 / direct=3 / weightb=1 / open_gop=0 / weightp=2 / keyint=24 / keyint_min=2 / scenecut=0 / intra_refresh=0 / rc_lookahead=35 / rc=abr / mbtree=1 / bitrate=3000 / ratetol=1.0 / qcomp=0.60 / qpmin=0 / qpmax=69 / qpstep=4 / vbv_maxrate=4500 / vbv_bufsize=6750 / nal_hrd=none / filler=0 / ip_ratio=1.40 / aq=1:1.00
Default                                  : Yes
Forced                                   : No

Audio
ID                                       : 2
Format                                   : AAC LC
Format/Info                              : Advanced Audio Codec Low Complexity
Codec ID                                 : A_AAC-2
Duration                                 : 23 min 40 s
Bit rate                                 : 192 kb/s
Channel(s)                               : 2 channels
Channel layout                           : L R
Sampling rate                            : 44.1 kHz
Frame rate                               : 43.066 FPS (1024 SPF)
Compression mode                         : Lossy
Stream size                              : 32.5 MiB (6%)
Title                                    : Japanese
Language                                 : Japanese
Default                                  : Yes
Forced                                   : No


点击图片可查看大图

软字幕无法在截图上展现,HDR版本/杜比视界版本截图会出现颜色异常,请使用支持的设备播放!

[动画剧集] THE NEW GATE[第10集][中文字幕].The.New.Gate.S01.2024.1080p.WEB-DL.AAC.H264-ParkTV 0.53GB

[动画剧集] THE NEW GATE[第10集][中文字幕].The.New.Gate.S01.2024.1080p.WEB-DL.AAC.H264-ParkTV 0.53GB

[动画剧集] THE NEW GATE[第10集][中文字幕].The.New.Gate.S01.2024.1080p.WEB-DL.AAC.H264-ParkTV 0.53GB

[动画剧集] THE NEW GATE[第10集][中文字幕].The.New.Gate.S01.2024.1080p.WEB-DL.AAC.H264-ParkTV 0.53GB

[动画剧集] THE NEW GATE[第10集][中文字幕].The.New.Gate.S01.2024.1080p.WEB-DL.AAC.H264-ParkTV 0.53GB

[动画剧集] THE NEW GATE[第10集][中文字幕].The.New.Gate.S01.2024.1080p.WEB-DL.AAC.H264-ParkTV 0.53GB

部分资源为软字幕,移动端推荐播放器:MxPlayer,nPlayer,infuse ,其他播放器请自行尝试。

部分资源为软字幕,电脑端推荐播放器:PotPlayer,完美解码,KMPLAYER,其他播放器请自行尝试。

下载端推荐纯BT下载软件:qBittorrent,Bitcomet,uTorrent ,其他下载软件请自行尝试。不支持吸血迅雷。

附件:


您需要 登录账户 后才能发表评论

取消回复欢迎 发表评论:

请填写验证码